#TITLE:Ari Ari;
#SUBTITLE:;
#ARTIST:이정현;
#TITLETRANSLIT:Ari Ari;
#SUBTITLETRANSLIT:;
#ARTISTTRANSLIT:Lee Jung Hyun;
#CREDIT:;
#BANNER:Ari Ari-bn.png;
#BACKGROUND:Ari Ari-bg.png;
#LYRICSPATH:;
#CDTITLE:pm4cd.png;
#MUSIC:Ari Ari.mp3;
#OFFSET:-0.080;
#SAMPLESTART:83.280;
#SAMPLELENGTH:20.000;
#SELECTABLE:YES;
#BPMS:0.000=144.000;
#STOPS:;
#BGCHANGES:;
// cache tags:
#FIRSTBEAT:4.500;
#LASTBEAT:528.000;
#SONGFILENAME:Songs/Music V.I.P ^_^/Ari Ari/Ari Ari.sm;
#HASMUSIC:1;
#HASBANNER:1;
#MUSICLENGTH:225.309;
// end cache tags

//---------------dance-single - ----------------
#NOTES:
     dance-single:
     :
     Hard:
     13:
     1.000,1.000,1.000,0.058,1.000,1168.000,407.000,13.000,0.000,7.000:
0000
0000
0000
0000
,
0000
0100
0010
0001
1000
0000
0010
0000
,
0200
0000
0000
0000
,
0300
0020
0000
0000
0000
0000
0000
0000
,
0000
0000
0030
0000
0002
0000
0000
0000
0000
0000
0000
0000
0000
0000
0000
0003
,
0000
0200
0000
0000
0000
0000
0000
0000
0000
0000
0000
0000
0000
0000
0000
0000
,
0000
0000
0000
0000
0000
0000
0000
0300
,
2000
0000
0000
0000
,
0000
0000
0000
0000
0000
0000
0000
0000
0000
0000
0000
0000
0000
0000
3000
0010
,
0100
0010
0100
0010
0100
0010
0100
0001
0010
0100
1000
0100
0010
0001
0010
1100
,
0000
0010
0000
0101
0000
0000
0000
1010
0000
0000
0000
1001
0000
0100
0000
0011
,
0000
0100
0000
1010
0000
0000
0000
0101
0000
0000
0000
1001
0000
0010
0000
1100
,
0000
0010
0000
0101
0000
0000
0000
0011
0000
0000
0000
1010
0000
0100
0000
0011
,
0000
0100
0000
1001
0000
0000
0000
0010
0000
0000
0000
0101
0000
0010
0000
1100
,
0000
0010
0000
0101
0000
0000
0000
1001
0000
0000
0000
0110
0000
0001
0000
0110
,
0000
1000
0000
0011
0000
0000
0000
0010
0100
0010
0100
0010
0100
0010
0100
0001
,
1000
0001
1000
0001
1000
0001
1000
0001
1000
0001
1000
0001
1000
0001
1000
0010
,
0100
1000
0100
0010
0001
1100
0000
0000
0000
0101
0000
0010
0000
0100
0000
1001
,
0000
0000
0000
0110
0000
0000
0000
1001
0000
0000
0000
0010
0100
1000
0100
0011
,
0000
0100
0000
1001
0000
0010
0000
1100
0000
0010
0000
0101
0000
0010
0000
1001
,
0000
0100
0000
0011
0000
0100
0000
1001
0000
0010
0000
1100
0000
0010
0000
0101
,
0000
0010
0000
1100
0000
0010
0000
0001
0010
0100
0010
0100
1000
0100
0010
0101
,
0000
0000
0000
1010
0000
0000
0000
0101
0000
0000
0000
0100
0010
0001
0010
1100
,
0000
0010
0000
1001
0000
0100
0000
0011
0000
0100
0000
1010
0000
0100
0000
0011
,
0000
0100
1000
0011
0000
1000
0100
0011
0000
0100
1000
0011
0000
0100
0010
1001
,
0000
0001
0010
1100
0000
0010
0001
1100
0000
0000
0000
0000
0000
0000
0000
1001
,
0000
0100
0000
1010
0000
0100
0000
0011
0000
0100
0000
1001
0000
0110
0000
1001
,
0000
0010
0000
0101
0000
0010
0000
1100
0000
0010
0000
1001
0000
0100
0000
1010
,
0000
0100
0000
0011
0000
0100
0000
1001
0000
0100
0000
1001
0000
0010
0000
1100
,
0000
0010
0000
0101
0000
0010
0000
1001
0000
0000
0000
1100
0000
0110
0000
0011
,
0000
0100
0000
1001
0000
0010
0000
1100
0000
0010
0000
0101
0000
1010
0000
0101
,
0000
0010
0000
1001
0000
0100
0000
1010
0000
0100
0000
0011
0000
0100
0000
1001
,
0000
0010
0000
1100
0000
0010
0000
0101
0000
0010
0000
1001
0000
0100
0000
1001
,
0000
0010
0100
1000
0100
0010
0000
0100
0010
0001
0010
1100
0000
1000
0100
0011
,
0000
0100
0000
1010
0000
0100
0000
1001
0000
0010
0000
0101
0000
0100
1000
0011
,
0000
0100
0000
1010
0000
0100
0000
0011
0000
0100
0000
1001
0000
0010
0100
1001
,
0000
0010
0000
0101
0000
0010
0000
1100
0000
0010
0000
1001
0000
0100
0000
0011
,
0000
0100
0000
1010
0000
0100
0000
1001
0000
0010
0000
0101
0000
1010
0000
1001
,
0000
0100
0000
0011
0000
0100
0000
1010
0000
0100
0000
0011
0000
1010
0000
0101
,
0000
0010
0000
1100
0000
0010
0000
1001
0000
0100
0000
0011
0000
0001
0010
1100
,
0000
0010
0000
1001
0000
0100
0000
0011
0000
0100
0000
1001
0000
0001
0010
1100
,
0000
1000
0100
0011
0000
0100
0010
0001
0010
0100
1000
0100
0010
0100
0010
1001
,
0000
0000
0000
0101
0000
0000
0000
1010
0000
0000
0000
1100
0000
0000
0000
0110
,
0000
0000
0000
0101
0000
0000
0000
1001
0000
0000
0000
0011
0000
0000
0000
1010
,
0000
0000
0000
0110
0000
0000
0000
1001
0000
0000
0000
1100
0000
0000
0000
0101
,
0000
0000
0000
0011
0000
0000
0000
1010
0000
0000
0000
0110
0000
0000
0000
1001
,
0000
0100
0000
1010
0000
1000
0100
0011
0000
1000
0000
0101
0000
0001
0010
1100
,
0000
0010
0000
0101
0000
1000
0100
0011
0000
0100
0000
1010
0000
0001
0010
1100
,
0000
1000
0100
0011
0000
0100
1000
0011
0000
1000
0100
0011
0000
0001
0010
1100
,
0000
0010
0000
0101
0000
0010
0000
1001
0000
0100
0010
0001
0000
1010
0000
0101
,
0000
0010
0000
1100
0000
0010
0000
1001
0000
0100
0000
0011
0000
0110
0000
1100
,
0000
0010
0000
0101
0000
0010
0000
1100
0000
0010
0000
1001
0000
0100
0000
1010
,
0000
0100
0000
0011
0000
0100
0000
1010
0000
0100
0000
1001
0000
0010
0000
1100
,
0000
0010
0000
0101
0000
0010
0000
1100
0000
0010
0000
0101
0000
1010
0000
1001
,
0000
0100
0000
1010
0000
0100
0000
0011
0000
0100
0000
1010
0000
0110
0000
0101
,
0000
0010
0000
1001
0000
0100
0000
1010
0000
0100
0000
0011
0000
1000
0100
0011
,
0000
0100
0000
1001
0000
0010
0000
0101
0000
0001
0010
1100
0000
1000
0100
0011
,
0000
0100
0010
1001
0000
0001
0010
1100
0000
0001
0010
0100
0010
0001
0010
1100
,
0000
0000
0000
0110
0000
0000
0000
1001
0000
0000
0000
0010
0100
1000
0100
0011
,
0000
1000
0000
0101
0000
0010
0000
1100
0000
0001
0000
1010
0000
0100
0000
0011
,
0000
0100
0000
1001
0000
0010
0000
0101
0000
0010
0000
1100
0000
0001
0000
1010
,
0000
0100
0000
0011
0000
0100
0000
0001
0010
0100
0010
0100
1000
0100
0010
0101
,
0000
0000
0000
1010
0000
0000
0000
0101
0000
0000
0000
1000
0100
0010
0001
1010
,
0000
0100
0000
1010
0000
0100
0000
0011
0000
1000
0000
0101
0000
0010
0000
1100
,
0000
1000
0100
0011
0000
0100
1000
0011
0000
0010
0001
1100
0000
0001
0010
1100
,
0000
0100
1000
0011
0000
0001
0010
1100
0000
0010
0100
1001
0000
0010
0000
1201
,
0000
1000
0010
0001
0000
0001
0010
1000
0000
1000
0010
0001
0000
0011
0000
1321
,
0000
0001
0100
1000
0000
1000
0100
0001
0000
0001
0100
1000
0000
1000
0100
0001
,
0000
0100
1000
0130
0000
0001
0010
0001
0000
0100
0010
0100
0000
0001
0010
0100
,
0000
0010
1000
0010
0000
0100
0001
0100
0000
1000
0001
1000
0000
0010
0100
0012
,
0000
1000
0100
0010
0000
0010
0100
1000
0000
1000
0100
0010
0000
1100
0000
2113
,
0000
0001
0010
0100
0000
0100
0010
0001
0000
0001
0010
0100
0000
0100
0010
3101
,
0010
0000
0100
0000
1000
0000
0100
0000
0010
0000
0001
0000
0010
0000
1001
0000
0010
0000
0001
0000
0010
0000
0100
0000
1000
0000
0100
0000
0010
0000
0001
0010
,
0100
0010
0100
1000
0100
0010
0001
0010
0100
0010
0100
1000
0100
0010
0001
0010
0100
1000
0101
0010
0100
0010
0001
0010
0100
1000
0101
0010
0100
0000
1111
0000
,
0000
0001
0000
0110
0000
1000
0000
0101
0000
0010
0000
1100
0000
0110
0000
0011
,
0000
0100
0000
1001
0000
0010
0000
0101
0000
0010
0000
1100
0000
1000
0100
0011
,
0000
0100
0000
1010
0000
0100
0000
0011
0000
1000
0000
0101
0000
0010
0000
1001
,
0000
0100
0000
0011
0000
1000
0000
0101
0000
1000
0000
0011
0000
0110
0000
1100
,
0000
0010
0000
1001
0000
0100
0000
0011
0000
1000
0000
0101
0000
0010
0001
1100
,
0000
0001
0000
1010
0000
0100
0000
0011
0000
1000
0000
0101
0000
0010
0100
1001
,
0000
0001
0010
1100
0000
1000
0100
0011
0000
0100
1000
0011
0000
0010
0001
1100
,
0000
0100
0010
1001
0000
0010
0100
1000
0100
0010
0001
0010
0100
0010
0100
1001
,
0000
0000
0000
0110
0000
0000
0000
0011
0000
0000
0000
0101
0000
0000
0000
1010
,
0000
0000
0000
1001
0000
0000
0000
0011
0000
0000
0000
1100
0000
0000
0000
0110
,
0000
0000
0000
0101
0000
0000
0000
0011
0000
0000
0000
1001
0000
0000
0000
1100
,
0000
0000
0000
0101
0000
0000
0000
0011
0000
0000
0000
1001
0000
0000
0000
1100
,
0000
0010
0000
0101
0000
0001
0010
1100
0000
0010
0000
1001
0000
0100
1000
0011
,
0000
1000
0000
0110
0000
0001
0010
1100
0000
0010
0000
0101
0000
1000
0100
0011
,
0000
0001
0010
1100
0000
1000
0100
0011
0000
0010
0001
1100
0000
0100
1000
0011
,
0000
0100
0000
0001
0000
0010
0000
0100
0000
1000
0100
0011
0000
1100
0000
0011
,
0000
0100
0000
1010
0000
0100
0000
0011
0000
0100
0000
1001
0000
0110
0000
1001
,
0000
0100
0000
1010
0000
0100
0000
0011
0000
1000
0000
0101
0000
0010
0000
1100
,
0000
0001
0000
1010
0000
0100
0000
0011
0000
1000
0000
0101
0000
0010
0000
1001
,
0000
0100
0000
0011
0000
1000
0000
0110
0000
0001
0000
1010
0000
0101
0000
1010
,
0000
0100
0000
1001
0000
0010
0000
0101
0000
0010
0000
1100
0000
0011
0000
1100
,
0000
0010
0000
1001
0000
0010
0000
0101
0000
1000
0000
0011
0000
1000
0100
0011
,
0000
0100
0000
1010
0000
0100
0000
1001
0000
0010
0001
1100
0000
0010
0000
0101
,
0000
1000
0100
0011
0000
0001
0010
1100
0000
0100
0010
0001
0010
0100
0010
2001
,
0010
0100
0000
0000
0000
0100
0010
0001
0000
0000
0000
0010
0100
0010
0000
0001
,
0010
0001
3000
0100
0000
0001
0010
0100
0000
0000
0000
1010
0000
0000
0000
0201
,
0010
1000
0000
0000
0000
1000
0010
0001
0000
0000
0000
0010
1000
0001
0000
1000
,
0010
0001
0300
0010
0000
1000
0100
0011
0000
0000
0000
1001
0100
0010
0000
0100
,
0010
0001
0010
0100
0010
0001
0010
0100
0010
0001
0010
0100
0010
0001
0010
0100
,
0010
0001
0010
0100
0010
0001
0010
0100
0010
0001
0010
0100
0010
0001
0010
0100
,
1000
0100
0010
0001
0010
0100
1000
0100
0010
0100
0010
1001
0000
0000
0000
0010
,
0100
0010
0100
0010
0100
0010
0100
0001
1000
0001
1000
0001
1000
0001
1000
0022
,
0000
0000
0000
0000
0000
0000
0000
0000
0000
0000
0000
0000
0000
0000
0033
0100
,
0010
0001
0010
0100
1000
0010
0100
1000
0100
0010
0001
0010
0100
0010
0100
1001
,
0000
0010
0000
1100
0000
0010
0000
1001
0000
0100
0000
0011
0000
0110
0000
1100
,
0000
0010
0000
0101
0000
0010
0000
1100
0000
0010
0000
1001
0000
0100
0000
1010
,
0000
0100
0000
0011
0000
0100
0000
1010
0000
0100
0000
1001
0000
0010
0000
1100
,
0000
0010
0000
0101
0000
0010
0000
1100
0000
0010
0000
0101
0000
1010
0000
1001
,
0000
0100
0000
1010
0000
0100
0000
0011
0000
0100
0000
1010
0000
0110
0000
0101
,
0000
0010
0000
1001
0000
0100
0000
1010
0000
0100
0000
0011
0000
1000
0100
0011
,
0000
0100
0000
1001
0000
0010
0000
0101
0000
0001
0010
1100
0000
1000
0100
0011
,
0000
0100
0010
1001
0000
0001
0010
1100
0000
0100
0010
0001
0010
0100
0010
1100
,
0000
0010
0000
0101
0000
0010
0000
1001
0000
0100
0000
0011
0000
1010
0000
1100
,
0000
0010
0000
1001
0000
0100
0000
0011
0000
0100
0000
1010
0000
0100
0000
0011
,
0000
0100
0000
1001
0000
0010
0000
1001
0000
0100
0000
0011
0000
0100
0000
1010
,
0000
0100
0000
0011
0000
0100
0000
1010
0000
0100
0000
1001
0000
0110
0000
1001
,
0000
0010
0000
1100
0000
0010
0000
0101
0000
0010
0000
1100
0000
0110
0000
0011
,
0000
0100
0000
1001
0000
0010
0000
1100
0000
0010
0000
0101
0000
0001
0010
0100
,
0010
0100
0010
0100
0010
0100
0010
1000
0100
0010
0001
0010
0100
0010
0001
1010
,
0000
0000
0000
0000
0000
0110
0000
0000
0000
0010
0000
1000
0000
0010
0000
1001
,
0000
0000
0000
0110
0000
0000
0000
1001
0000
0000
0000
0010
0100
1000
0100
0011
,
0000
0100
0000
1001
0000
0010
0000
1100
0000
0010
0000
0101
0000
0010
0000
1001
,
0000
0100
0000
0011
0000
0100
0000
1001
0000
0010
0000
1100
0000
0010
0000
0101
,
0000
0010
0000
1100
0000
0010
0000
0001
0010
0100
0010
0100
1000
0100
0010
0101
,
0000
0000
0000
1010
0000
0000
0000
0101
0000
0000
0000
0100
0010
0001
0010
1100
,
0000
0010
0000
1001
0000
0100
0000
0011
0000
0100
0000
1010
0000
0100
0000
0010
,
0100
0010
0100
0010
0100
0010
0100
0001
1000
0001
1000
0001
1000
0001
1000
0010
,
0100
0010
0100
0001
1000
0001
1000
0010
0100
1000
0100
0010
0001
0010
0100
1001
,
0010
0000
0000
0000
;

//---------------dance-single - ----------------
#NOTES:
     dance-single:
     :
     Medium:
     1:
     0.000,0.000,0.000,0.000,0.000,0.000,0.000,0.000,0.000,0.000:
0000
0000
0000
0000
;
